#TITLE:Presentiment Of Storm;
#SUBTITLE:;
#ARTIST:Kagamine Len;
#TITLETRANSLIT:;
#SUBTITLETRANSLIT:;
#ARTISTTRANSLIT:;
#CREDIT:;
#BANNER:Kagamine Len - Presentiment Of Storm-banner.jpg;
#BACKGROUND:Kagamine Len - Presentiment Of Storm-bg.jpg;
#LYRICSPATH:Kagamine Len - Presentiment Of Storm.lrc;
#CDTITLE:CDTitle.png;
#MUSIC:Kagamine Len - Presentiment Of Storm.ogg;
#OFFSET:0.320;
#SAMPLESTART:61.380;
#SAMPLELENGTH:12.000;
#SELECTABLE:YES;
#BPMS:0.000=176.000;
#STOPS:;
#BGCHANGES:;
// cache tags:
#FIRSTBEAT:1.000;
#LASTBEAT:298.000;
#SONGFILENAME:songs/Vocaloid Party/Kagamine Len - Presentiment Of Storm/Kagamine Len - Presentiment Of Storm.sm;
#HASMUSIC:1;
#HASBANNER:1;
#MUSICLENGTH:102.827;
// end cache tags

//---------------dance-single - ----------------
#NOTES:
     dance-single:
     :
     Challenge:
     9:
     0.753,0.761,0.272,0.204,0.263,493.000,28.000,21.000,19.000,0.000:
0000
0001
0001
0001
,
0002
0000
0003
0000
1000
0010
1000
0010
1000
0000
0010
1000
0010
1000
0010
0000
,
0100
0001
0100
0001
0100
0000
0001
0100
0001
0100
0001
0000
1000
0000
0001
0000
,
1000
0001
1000
0000
0001
0000
1000
0000
0010
0000
0000
0000
0100
0000
0001
0000
,
0010
0000
0100
0000
0010
0000
0001
0000
0100
0000
0000
0100
0001
0000
0001
0000
,
1000
0010
0100
0010
0100
0000
0001
1000
,
0001
0000
1000
0000
0010
0000
0100
0000
0001
0000
0000
0001
0100
0000
0010
0000
,
1000
0010
1100
1000
0001
0000
0010
0100
,
1000
0000
0000
1000
0001
0000
0001
0000
0010
0000
0000
0100
1000
0000
0010
0000
,
0100
0000
0010
0000
1000
0000
0100
0000
1000
0000
0000
1000
0010
0000
0010
0000
,
1000
0000
0000
0001
1000
0000
0010
0000
0100
0000
0000
0000
0001
0000
0100
0000
,
0110
0000
0001
0000
1000
0000
1000
0100
1000
0000
0001
0000
0001
1000
0001
0000
,
0100
0000
0100
0001
0100
0000
0010
0000
0010
0100
0010
0000
1000
0001
1000
0001
,
1000
0001
1000
0001
1000
0000
0000
0000
0001
0000
0010
0000
0001
0000
0100
0000
,
0000
0010
0000
1000
1100
0000
0100
0010
,
0101
0000
0002
0000
0010
0100
0000
0000
,
0000
0000
0000
0000
1003
0000
0001
0000
0100
0000
0010
0100
0010
0000
1000
0000
,
0001
0000
0100
0010
0100
0000
0000
0000
0001
0000
0100
0000
0010
0000
1000
0000
,
0000
0001
0000
0010
1100
0000
1000
0010
,
0110
0000
0020
0000
1000
0100
0000
0000
,
0000
0000
0000
0000
1030
0000
0001
0010
0001
0000
0010
0000
0100
0000
1000
0100
,
1000
0000
0001
0100
0001
0000
0000
0000
1000
0000
0001
0000
1000
0000
0100
0000
,
1000
0100
0010
0100
0010
0000
0001
1000
,
0001
0000
0100
0001
0010
0000
0000
0100
,
0000
1000
0010
0100
0010
0100
0001
1000
,
0110
0100
1100
0000
1000
0001
0100
0010
,
0100
0010
1000
0100
0010
0001
0000
1000
,
0001
0100
0000
0000
0001
1000
0010
0100
,
0000
0010
0100
0000
0001
0000
1100
0010
,
1010
0000
0110
0001
0100
0001
0100
0000
,
1001
1000
0001
1000
0010
0000
0100
0100
,
0001
1000
0010
0000
1000
0100
0000
1000
,
0001
0010
0100
1000
0001
0100
0010
1000
,
0001
1000
0010
0100
0010
1000
0001
0000
,
0100
0001
1000
0100
0000
0010
0001
0100
,
0000
0001
1000
0000
0010
0100
0000
0001
,
0000
1000
0000
0000
0001
0010
0001
0100
,
1010
0100
0110
0000
0010
0000
1000
0000
,
1100
0000
0000
0000
0000
0000
0000
0000
0000
0000
0000
0001
0100
0000
0000
0000
,
0101
1010
0010
0100
,
1001
0000
0000
0000
0000
0000
0000
0000
0001
0000
0000
1000
0100
0000
0010
0000
,
0001
0000
1000
0100
0010
0001
1000
0100
,
0010
0000
0001
0000
1000
0000
0010
0000
1000
0001
0000
0001
1000
0000
0010
0000
,
0100
0000
0010
0000
0000
0000
0000
0000
1000
0010
0000
1000
0010
0000
1000
0000
,
0010
0000
0000
0100
0000
0000
0000
0000
0000
0000
0000
0000
0001
0000
0000
0000
0000
0000
0001
0000
0000
1000
0001
1000
,
0001
0000
1000
0000
0010
0000
1000
0001
,
0000
1000
0100
1000
0001
0000
1000
0010
,
1000
0000
0001
0100
0001
0000
1000
0100
,
0000
0000
0010
0001
0100
0000
0010
1000
0100
0000
0010
0001
0100
0000
0010
1000
,
0100
0000
1000
0010
0100
0000
0000
0000
0001
0000
0100
0000
0000
0000
0100
0000
,
0001
0000
1000
0100
1000
0010
0100
0001
,
0010
0000
0001
0000
1000
0100
1000
0100
,
0010
0000
0100
0000
0000
0000
0000
0000
1000
0001
0100
0001
0100
0000
0000
0000
,
0001
0000
1000
0100
1000
0000
0000
0000
0001
0000
0000
0000
0010
0000
0100
0000
,
0000
1000
0100
0010
0001
0000
1000
0001
,
0100
0000
0001
1000
0010
0000
1000
0000
,
0010
0100
0000
0MM0
0001
0000
1000
0000
,
0010
0100
0000
0000
0110
0000
0000
0000
0010
0000
0000
0000
1000
0000
0001
0000
,
0100
0001
1000
0010
1000
0000
0001
0000
,
0100
0010
0000
1000
0001
1000
0010
0100
,
0010
0000
1010
0000
0000
0000
1000
0000
0001
0000
0000
0000
1000
0000
0100
1000
,
0001
1000
1010
0000
0001
0100
0010
1000
,
0100
0000
1000
0001
0100
0010
0201
0000
,
0010
0300
2001
0000
0100
3000
0021
0000
,
0031
0000
0100
0000
0000
0000
0000
0000
0010
0000
1000
0000
0010
1000
0010
1000
,
0010
0100
0001
0100
0001
0000
0000
0000
1000
0000
1000
0000
0010
0100
0001
0010
,
0100
1000
0001
0010
0100
0000
0000
0000
1010
0000
0000
0000
0001
0000
0000
0000
,
1000
0000
0001
0002
0000
1003
200M
0000
,
3001
M002
0000
1003
100M
0000
1200
0000
,
M0M1
0300
0010
0020
0000
0130
02M0
0000
,
0310
0M20
0000
0130
01M0
0000
1020
0000
,
M10M
0030
1000
2000
0000
3100
M200
0000
,
0310
0M20
0000
0031
00M1
0000
1200
0000
,
M0M1
0300
1000
2000
0000
3010
M020
0000
,
0130
01M0
0200
0000
0300
0000
0000
0000
;

//---------------dance-single - ----------------
#NOTES:
     dance-single:
     :
     Hard:
     7:
     0.554,0.686,0.117,0.146,0.024,372.000,12.000,15.000,0.000,0.000:
0000
0000
0000
0000
,
0000
0000
0000
0000
1000
0000
0001
1000
0001
0000
1000
0000
0001
1000
0001
0000
,
1000
0000
0001
1000
0001
0000
1000
0000
0001
1000
0001
0000
1000
0000
0001
0000
,
1000
0001
1000
0000
0010
0000
0100
0000
0001
0000
0000
0000
1000
0000
0100
0000
,
0010
0100
0010
0100
1000
0000
0001
0100
,
0010
0100
0001
1000
0100
0000
0010
0001
,
1000
0001
0100
0010
0100
0000
0002
0023
,
0230
1300
0001
1000
0100
0000
1000
0001
,
0010
0100
0010
1000
0010
0000
1000
0001
,
0100
0010
1000
0001
0100
0000
0001
1000
,
0001
0100
0010
1000
0001
0000
2000
3020
,
0230
0301
1000
0010
0100
0010
0000
1000
,
0001
0000
0010
0100
0000
1000
0010
0100
,
0010
1000
0000
0000
0001
0100
0010
0100
,
0000
0010
0000
0000
1000
0000
0001
0000
,
0010
0000
0001
0000
1000
0100
0000
0000
,
0000
0000
0010
0001
0010
0100
1000
0001
,
1000
0010
0100
0000
0001
0100
0001
1000
,
0000
0010
0000
0000
1000
0000
0001
0000
,
1000
0000
0001
0000
0100
0010
0000
0000
,
0000
0000
0100
0010
0100
0010
0100
0001
,
0010
0100
1000
0000
0001
1000
0010
0100
,
0000
0001
0000
1000
0010
0000
0100
0000
,
0010
0000
1000
0000
0010
0000
0000
0100
,
0000
0001
0000
0000
0000
0000
0000
0000
,
1000
0100
0010
0000
0100
0010
0100
1000
,
0100
0010
0001
1000
0010
1000
0000
0100
,
1000
0001
0000
0000
0100
0001
0100
0010
,
0000
1000
0001
0000
0100
0000
0010
0010
,
1000
0000
0001
0000
1000
0100
0010
0000
,
0001
0000
0010
0100
1000
0000
0010
1000
,
0000
0001
0010
0000
0100
1000
0000
0010
,
0100
0000
0001
0100
0001
0100
0010
0000
,
1000
0000
0001
1000
0010
1000
0010
0000
,
1000
0010
1000
0001
0000
1000
0010
0100
,
0000
0001
0100
0000
0001
0010
0000
0001
,
0000
0100
0000
0000
0000
0000
0000
0000
,
0010
0100
0010
0000
1000
0000
0010
0000
,
0100
0000
0000
0000
0001
1000
0001
0000
,
0100
0001
1000
0010
,
0100
0000
0001
1000
,
0010
0000
0100
0010
1000
0001
0100
0010
,
1000
0001
0100
0010
1000
0001
2000
0000
,
3000
0202
0000
0000
0000
0000
0000
0000
,
0303
0110
0000
0000
0000
0000
0010
1000
,
0001
0000
0100
0000
0001
0000
1000
0010
,
0000
0100
0000
0000
0001
0000
0100
0000
,
0010
0100
0000
0202
,
0303
0220
0000
0000
0330
0000
0010
0000
,
0100
0000
0001
0000
1000
0010
0000
0000
,
0100
0001
0100
0010
,
0100
0000
0001
0000
1000
0010
1000
0010
,
1000
0010
0000
0000
1000
0100
0010
0000
,
0100
0010
0001
0000
0100
0000
0001
0100
,
0000
0010
0000
0000
0100
0000
0001
0000
,
1000
0010
0000
1000
,
0001
0010
0000
0000
0001
0000
0100
0000
,
0010
0100
0001
1000
,
0100
0010
0000
0000
0001
0000
1000
0000
,
0010
0110
0000
0000
0000
0000
0000
0000
,
0000
0011
0000
0000
0100
0000
0010
0000
,
1000
0000
0001
0000
1000
0010
1000
0000
,
0010
0000
0100
0000
0001
0010
0001
0000
,
0010
0100
1000
0001
,
1000
0010
1000
0000
0001
0100
0001
0000
,
1000
0000
0001
0000
0100
0010
0000
1000
,
0001
1000
0010
0000
1000
0000
0001
0000
,
0100
0000
0002
0000
0000
0200
0000
0000
,
0000
0000
0303
1010
,
1010
0000
0001
0010
0100
0010
0100
0000
,
1000
0001
0100
0001
0100
0000
0110
0000
,
0110
0000
0010
1000
0100
1000
0100
0000
,
0010
0001
1000
0001
1000
0000
0101
0000
,
0101
0000
0001
1000
0010
0100
0010
0100
,
0001
1000
0010
0000
0000
0000
0000
0000
;

//---------------dance-single - ----------------
#NOTES:
     dance-single:
     :
     Medium:
     6:
     0.511,0.505,0.165,0.204,0.000,330.000,17.000,21.000,0.000,0.000:
0000
0000
0000
0000
,
0000
0000
1000
0010
1000
0010
1000
0010
,
0100
0001
0100
0001
0100
0001
0100
0010
,
0100
0000
0001
0000
1000
0000
0010
0100
,
0010
0000
1000
0000
0001
0000
1000
0010
,
0100
0000
0001
0000
1000
0000
0001
0100
,
0010
0000
1000
0001
1000
0000
0010
0100
,
0010
0100
0010
0000
1000
0010
0000
1000
,
0010
0000
1000
0100
1000
0100
1000
0010
,
0100
0000
0001
0000
0100
0001
0000
1000
,
0010
0000
0100
0001
0100
0001
0100
0010
,
1000
0000
0001
0000
0000
1100
0000
0000
,
0010
0000
0000
0101
0000
0000
0001
1000
,
0010
0110
1000
0001
,
0000
0200
0000
0000
0320
0000
2030
0000
,
3002
0103
0002
0000
,
0000
0000
1003
0000
0100
0000
0010
0100
,
0010
0100
1000
0001
,
0000
2000
0000
0000
3020
0000
0230
0000
,
0320
1030
0200
0000
,
0000
0000
1300
0000
0010
0000
0100
0001
,
0100
0010
1000
0000
0010
0000
0100
0000
,
1010
0100
0001
1000
,
0110
0001
1000
0010
,
0110
1000
0001
0100
,
1010
0000
0101
0000
1000
0010
1000
0000
,
0001
0100
0001
0000
0100
0001
0000
1000
,
0100
0000
1000
1010
,
0000
0100
0010
0000
1000
0000
0010
1000
,
0010
0000
2000
0000
3001
0100
0001
0000
,
2000
0000
3001
0100
0001
0000
0100
0000
,
0010
0000
0100
0010
1000
0001
1000
0001
,
1000
0000
0000
0000
,
0000
0000
0001
0100
0001
0100
0001
0000
,
1000
0000
0010
1000
0000
0001
1000
0000
,
0000
0001
0100
0010
,
0100
0000
0001
0010
0001
0000
1000
0010
,
1000
0100
1000
0000
0010
0100
0010
0000
,
1001
0000
0100
0010
,
1000
0110
1000
0001
,
1100
1000
0001
0100
,
0010
0000
1000
0010
1000
0010
1000
0010
,
1000
0000
0001
0100
0001
0000
1000
0000
,
0000
0110
0000
0000
0000
0000
0000
0000
,
0000
0001
1000
0001
,
1001
0000
0010
0000
0100
0000
0001
1000
,
0010
0000
1000
0000
0100
0000
1000
0100
,
0010
0000
0100
0010
0100
0000
0020
0000
,
0000
0032
0000
1000
1000
0000
0013
0100
,
1000
0100
0010
0000
0001
1000
0000
0000
,
0010
0000
0100
0000
0010
0000
1000
0100
,
0010
0000
0001
0010
0001
0000
1000
0100
,
1000
0000
0001
0000
0100
0001
0010
0001
,
0010
0000
0100
0000
1000
0000
0100
0010
,
0000
0000
0001
0000
1000
0000
0001
0010
,
0100
0000
0010
0100
1000
0000
0001
0000
,
1000
0010
0000
0000
0100
0000
0001
0000
,
0010
0000
0100
1000
0001
0000
1000
0001
,
0010
0000
0001
1000
0001
1000
0100
0000
,
0010
0000
0001
0010
0100
0000
1000
0100
,
1000
0000
0001
0010
0001
0010
0100
1000
,
0100
1100
0000
0001
,
1000
1010
0000
0100
,
0001
0100
0010
1000
,
0001
1000
0000
0000
0000
0000
0000
0000
,
0010
0000
1000
0000
0010
0100
0000
0000
,
0001
1000
1010
0100
,
0001
0000
2000
0000
0000
0010
0000
0000
,
3002
0000
0000
1000
0000
0000
0103
0000
,
0001
0000
0200
0000
0000
0001
0000
0000
,
0320
0000
0000
0100
0000
0000
1030
0000
,
0001
0000
2000
0000
0000
0010
0000
0000
,
3200
0000
0000
1000
0000
0000
0310
0000
,
0001
0000
0200
0000
0000
0001
0000
0000
,
0301
1000
0001
0000
0000
0000
0000
0000
;

//---------------dance-single - ----------------
#NOTES:
     dance-single:
     :
     Easy:
     4:
     0.271,0.289,0.068,0.078,0.000,180.000,7.000,8.000,0.000,0.000:
0000
0000
0000
0000
,
0000
0000
1000
0000
0000
0010
0000
0000
,
0100
0000
0000
0001
0000
0000
0100
0000
,
0001
1000
0000
0001
,
0000
0100
0000
0010
,
1000
0010
0000
0100
,
0000
0001
0000
0010
,
0001
0010
0000
0110
,
0000
0100
0000
0001
,
0000
1000
0000
0110
,
0000
0001
0000
0100
,
0001
1000
1000
0000
,
0001
0001
0000
2000
,
0000
3010
0000
1000
,
0000
0001
0000
0100
,
0000
0010
2000
0000
,
0000
3001
0100
0010
,
1000
0010
0000
1000
,
0000
0001
0000
0100
,
0000
0001
0200
0000
,
0000
0310
1000
0001
,
1000
0101
0000
0100
,
0000
0010
0000
1000
,
0000
0001
0000
1000
,
0000
0010
0000
0100
,
0001
0100
0000
0010
,
0000
1000
0000
0010
,
0000
0100
0000
0001
,
0000
1000
1000
0002
,
0103
0010
0000
1000
,
0001
0000
0100
0001
,
0000
1000
0000
0010
,
0100
0000
0000
0000
,
0000
0001
0000
1000
,
0010
0010
0000
0100
,
0000
0001
0000
1000
,
0000
0010
0000
0100
,
0001
0010
0000
0000
,
1010
0000
1000
0001
,
1000
0010
0000
0100
,
0001
0000
1000
0010
,
1000
0201
0000
0010
,
0000
0001
0000
0320
,
0000
0000
0000
0000
,
0000
0030
1000
0000
1000
0000
1000
0000
,
1000
0001
0000
0100
,
0000
0001
0000
1000
,
0000
0010
0000
0101
,
0000
0000
0000
1000
,
0010
1000
0000
0001
,
0000
0100
0000
0010
,
0000
1000
0000
0001
,
0100
0000
0000
1010
,
0000
0001
1000
0010
,
0000
0100
0000
0001
,
0000
1000
0000
0010
,
1000
0000
0010
0100
,
0001
1000
0000
0001
,
0000
0100
0000
0001
,
2000
0000
0000
0001
,
0001
3000
0100
0100
,
0001
1000
0000
0100
,
1000
0100
0000
0010
,
0000
0001
0000
1000
,
1000
0000
0000
0001
,
0010
0001
0000
1000
,
0000
0010
0020
0130
,
0000
0001
0000
1000
,
0001
0000
1000
0001
,
1000
0001
0000
0100
,
0010
0000
0100
0010
,
0100
0010
0000
1000
,
0010
0000
1000
0010
,
1000
0010
0000
0100
,
0001
0100
0000
0000
;

//---------------dance-single - ----------------
#NOTES:
     dance-single:
     :
     Beginner:
     1:
     0.124,0.181,0.019,0.088,0.000,78.000,2.000,9.000,0.000,0.000:

0000
0000
0000
0000
,
0000
0000
0000
0000
,
0000
0000
0000
0000
,
0000
1000
0000
0000
,
0000
0001
0000
0000
,
0000
0100
0000
0000
,
0000
0010
0000
2000
,
0000
3010
0000
0000
,
0000
0100
0000
0000
,
0000
0001
0000
0000
,
0000
0100
0000
0002
,
0000
1003
0000
0000
,
0000
0000
0000
0000
,
0000
1001
0000
0000
,
0000
1000
0000
0000
,
0000
0010
0000
0000
,
0000
0200
0000
0302
,
0000
0103
0000
0000
,
0000
0001
0000
0000
,
0000
0100
0000
0000
,
0000
0020
0000
0230
,
0000
0310
0000
0000
,
0000
1000
0000
0000
,
0000
0010
0000
0000
,
0000
0100
0000
0000
,
0000
0001
0000
0000
,
0000
1000
0000
0000
,
0000
0010
0000
0000
,
0000
0100
0000
0000
,
0000
0001
0000
0000
,
0100
0000
0000
0010
,
0000
1000
0000
0000
,
0000
0000
0000
0000
,
0000
0001
0000
0000
,
1000
0000
0000
0010
,
0000
0100
0000
0000
,
0000
0000
0000
0000
,
0001
0001
0000
0000
,
1000
0000
0000
0000
,
0000
0010
0000
0000
,
0100
0000
0000
0001
,
0000
1000
0000
0001
,
0000
1000
0000
0001
,
0000
0000
0000
0000
,
0000
0000
0000
0000
,
0000
0100
0000
0000
,
0000
0001
0000
0000
,
0000
1000
0000
0000
,
0000
0010
0000
0000
,
0000
1000
0000
0000
,
0000
0001
0000
0000
,
0000
0100
0000
0000
,
0000
0001
0000
0000
,
0000
1000
0000
0000
,
0000
0001
0000
0000
,
0000
0100
0000
0000
,
0000
0000
0020
0000
,
0000
0130
0000
0000
,
0000
0001
0000
0000
,
0200
0300
0000
0000
0000
0000
0000
0000
,
0002
0003
0000
0000
0000
0000
0000
0000
,
0000
1000
0000
0000
,
0000
0001
0000
0000
,
0000
0100
0000
0000
,
0000
0010
0000
0000
,
0000
1000
0000
0000
,
0000
0001
0000
0100
,
0000
0001
0000
0000
,
0000
0000
0000
1000
,
0000
0010
0000
0000
,
0000
0000
0000
0100
,
0000
0010
0000
0000
,
0000
0000
0000
0100
,
0000
0001
0000
0000
,
0000
0101
0000
0000
;
